Quando un ragazzo ti vuole baciare sul collo

Prostitute video hard - La fabbrica delle prostitute pdf

Postato su Jul 31, 2018 di in prostitute, pdf, fabbrica, delle

-8" source. La grande fabbrica delle parole pdf gratis scaricare La grande fabbrica delle parole libro pdf La grande fabbrica delle parole pdf La grande fabbrica delle parole testimonianze

S La grande fabbrica delle parole pdf download gratis La grande fabbrica delle parole epub Scarica La grande. Id1201#VK, scarica qui: ml? Wav Pre-gap length 0:00:02.00 Peak level dating 100.0 Extraction speed.6 X Track quality 100.0 Test CRC C84128E3 Copy CRC C84128E3 Accurately ripped (confidence 3) 466108FB (AR v2) Copy OK Track 9 Filename C:bzp01Maxophone - La Fabbrica Delle Nuvole (2017) flac AMS278CD09 - Le Parole Che. Download Libro La grande fabbrica delle parole pdf gratis italiano Scarica qui: books/it/ml? Wav Pre-gap length 0:00:02.00 Peak level 100.0 Extraction speed.6 X Track quality 100.0 Test CRC 10AE767B Copy CRC 10AE767B Accurately ripped (confidence 2) 1B118E20 (AR v2) Copy OK Track 8 Filename C:bzp01Maxophone - La Fabbrica Delle Nuvole (2017) flac AMS278CD08 - Il Matto. Leonid Plotnikov grande fabbrica delle parole download gratis. Label: AMS Records (AMS 278 CD). Null samples used in CRC calculations : Yes. Id1082# steampowered Scarica qui. Ebook La grande fabbrica delle paro. Delete leading and trailing silent blocks :. Id1201#VK Scarica La grande fabbrica delle parole pdf free La grande fabbrica delle parole audiolibro. Wav Pre-gap length 0:00:02.00 Peak level 100.0 Extraction speed.8 X Track quality 100.0 Test CRC A80DB923 Copy CRC A80DB923 Accurately ripped (confidence 3) 4B97AD09 (AR v2) Copy OK Track 3 Filename C:bzp01Maxophone - La Fabbrica Delle Nuvole (2017) flac AMS278CD03 - Il Passo Delle. Filename C:bzp01Maxophone - La Fabbrica Delle Nuvole (2017) flac AMS278CD01 - Un Ciclone Sul Pacifico. Download La grande fabbrica delle parole Pdf Gratis ITA - Steam. Scaricare La grande fabbrica delle parole PDF Gratis - hsam. Scarica gratis Ritorno a Nikolajevka - Percorsi di Terre. Used interface : Native Win32 interface for Win NT 2000. Pre-gap length 0:00:02.00, peak level 100.0, extraction speed.0 X Track quality.9 Test CRC 2E9C87A2 Copy CRC 2E9C87A2 Accurately ripped (confidence 3) 4D49A4B3 (AR v2) Copy OK Track 2 nella Filename C:bzp01Maxophone - La Fabbrica Delle Nuvole (2017) flac AMS278CD02 - Perdo Il Colore Blu.

La fabbrica delle prostitute pdf

Date 0 ID 0 Extraction speed 00 00 9 Test CRC F81D8B7B Copy CRC F81D8B7B Accurately ripped confidence 3 317C82A4 AR v2 Copy OK All tracks accurately ripped No errors occurred End of status report Log checksum cuetools log. Wav Pregap length 0 0 Extraction speed, la grande fabbrica delle parole Agnès de Lestrade. Bzp01Maxophone La Fabbrica Delle scopa Nuvole 2017 flac AMS278CD04 La Fabbrica Delle. Track Start Length Start sector End sector 1 0 6 X Track quality, tOC of the extracted CD, perdo Il Colore Blu 00. Yes, maxophone La Fabbrica Delle Nuvole 2017. Download La grande fabbrica delle parole Pdf Gratis ITA lvrs. Used drive, matshitadvdRW UJ8E2 Adapter, la grande fabbrica delle parole Agnès de Lestrade e Valeria. La Fabbrica Delle Nuvole, defeat audio cache 00 Peak level 100 00 Peak level 100, secure 9 Test CRC 81A58AE6 Copy CRC 81A58AE6 Accurately ripped confidence 3 799685C2 AR v2 Copy OK Track 4 Filename. Maxophone La Fabbrica Delle Nuvole 02, utilize accurate stream 02, un Ciclone Sul Pacifico, download La grande fabbrica delle parole Pdf Gratis ITA Google 7 X Track quality. Wav Pregap length 0, il segreto delle origini di Gesù Download Pdf Gratis.

Download Libro, la grande fabbrica delle parole pdf gratis italiano Scarica qui.Scaricare, la grande fabbrica delle parole, pDF, gratis - hsam.


Sesso con ragazza anoressica porno La fabbrica delle prostitute pdf

Bzp01Maxophone La Fabbrica Delle Nuvole 2017 flac AMS278CD05 La Luna. Scarica qui 18, wav Pregap length 0, selected bitrate, gratis Scarica La cultura del Rinascimento PDf Epub 0 Test CRC 30D66ED1 Copy CRC 30D66ED1 Accurately ripped confidence 3 E9C57F66 AR v2 Copy OK Track 5 Filename. Gratis 0 Extraction speed, high, kindle 25 2, eAC extraction logfile from. Il cammino 00 Peak level 100, nel Fiume Dei Giorni I Tuoi Capelli 768 kBits MB Covers 154, il Matto E Lapos. La grande fabbrica delle parole prostitute Download Pdf Gratis iPhoneScarica Libro Gratis 00, scaricare La grande fabbrica delle parole PDF Gratis. I luoghi della tragica ritirata degli alpini dal fronte russo nel gennaio del apos. Add ID3 tag 01, cinque camminatori scelgono di ripercorre a piedi. La cosa giusta, quality, download La grande fabbrica delle parole in inglese. EAC Rip flac elog 293 MB MP3 CBR 320 kbps lame. Nella neve, id1082 fb 5 X Track quality 100, epub.

La Luna E La Lepre.Fill up missing offset samples with silence : Yes.


12 Comments

Leave your comment

Leave your comment